MamaSK - Главная Галерея Реклама на сайте Доска объявлений Совместные покупки Линейки для форума
Блок с содержанием первого сообщения
Я задумывала эту тему как свободно посещаемую, но все же необходимо соблюсти некоторые формальности, которые сделают работу эффективнее. От участниц мне нужна следующая информация:
1. полное название модели видеокамеры/фотоаппарата;
2. (Только для монтажа!)полное название формата, в котором видеокамера выдает материал. Это не просто три буквы расширения после точки в названии файла. Полную информацию можно найти в инструкции по эксплуатации камеры. Это: кодек, разрешение, частота кадров и собственно расширение файла. Кодеки могут быть такими: AVC HD, H.264, MJPEG, WMV, ASF, DV, HDV, надеюсь ничего не забыла.
3. чему бы вы хотели научиться?
Монтаж будем изучать в программе Canopus Edius 4.61

Может быть кому-то будет проще следующим образом вытянуть инфу (только для монтажа, для фото не надо!). Этот способ не годится, если камера пишет на кассеты или DVD-диски. Программа MediaInfo, весит 2 метра. Ее нужно установить, запустить, через меню Файл-Открыть открыть готовый файл с вашей камеры. После того, как открыли файл нужно щелкнуть на меню Просмотр и выбрать пункт Текст. В окне появится много информации о файле. Ее нужно скопировать и опубликовать в сообщении. Скачать можно по ссылке:
 http://dreamline-studio.ru/MediaInfo_GUI_0.7.39_Windows_i386.exe Жмем правой кнопкой, выбираем Сохранить как.. (или загрузить как... смотря что предложит ваш браузер)ну и сохраняем куда нам надо.

Ссылка

Автор Тема: Записываемся в кружок! Важная информация в первом посте.  (Прочитано 7588 раз)

0 Пользователей и 1 Гость просматривают эту тему.

Оффлайн Татьян@

  • Пользователь
  • **
  • Сообщений: 255
  • Сказали спасибо: 19 раз
  • Репутация: 10
  • Откуда: г. Ставрополь Перспективный
Здравствуйте! Еще записываете?
Lumix DMC-FZ8 - 7.2 Мпикс цифровой фотоаппарат Panasonic с 12х оптическим зумом
 видео: QuickTime Motion JPEG
MOV
Видеоизображение   [4:3] 640х480/320х240 пикселей со скоростью 30 или 10 кадров в секунду, [16:9] 848х480 пикселей со скоростью 30 или 10 кадров в секунду
ПО установлено
« Последнее редактирование: 31 Январь 2011, 00:55:50 от МУР »

Пристраиваю Платье LC Waikiki, размер 36 (российский 42 или 44), цена 1850 руб.
Фото кликабельно! Украшение в к
 

Оффлайн Царефна

  • Редактор журнала
  • Живу на форуме
  • *
  • Сообщений: 7234
  • Сказали спасибо: 3 раз
  • Репутация: 238
  • Вкус у запаха зелёный :)
  • Откуда: Нефтеюганск - Ставрополь
  • Награды Велосемья Слингосемья Самый позитивный форумчанин Орден маме погодок с разницей до 2.5 лет между детьми Журналист форума
Panasonic DMC-FZ18
только фото
« Последнее редактирование: 31 Январь 2011, 00:46:40 от МУР »

Чтобы сохранить ангельский характер - нужно иметь дьявольское терпение
 

Оффлайн nensi

  • Пользователь
  • **
  • Сообщений: 122
  • Репутация: 3
    • STAV-IT  -Ремонт компьютеров и комплектующих.
 Цифровой фотоаппарат Samsung S1060
Общее\SDC11315.AVI
Формат                           : AVI
Формат/Информация                : Audio Video Interleave
Размер файла                     : 125 Мбайт
Продолжительность                : 1 м. 50 с.
Общий поток                      : 9469 Кбит/сек

Видео
Идентификатор                    : 0
Формат                           : JPEG
Идентификатор кодека             : MJPG
Продолжительность                : 1 м. 50 с.
Битрейт                          : 9369 Кбит/сек
Ширина                           : 640 пикс.
Высота                           : 480 пикс.
Соотношение сторон               : 4:3
Частота кадров                   : 30,000 кадр/сек
Цветовое пространство            : YUV
Подвыборка цветности             : 4:2:2
Битовая глубина                  : 8 бит
Тип развёртки                    : Прогрессивная
Метод сжатия                     : С потерями
Бит/(Пиксели*Кадры)              : 1.017
Размер потока                    : 124 Мбайт (99%)

Аудио
Идентификатор                    : 1
Формат                           : ADPCM
Профиль формата                  : U-Law
Идентификатор кодека             : 7
Идентификатор кодека/Подсказка   : CCITT
Продолжительность                : 1 м. 50 с.
Вид битрейта                     : Постоянный
Битрейт                          : 88,2 Кбит/сек
Канал(ы)                         : 1 канал
Частота                          : 11,025 КГц
Битовая глубина                  : 8 бит
Размер потока                    : 1,16 Мбайт (1%)
Продолжительность промежутка     : 33  мс. (1,00 видеокадр
ПО установлено
увлекаюсь  фото  .и  хочу  научиться  монтировать ролики , думаете  не  потянет,я  буду  стараться.я на  нем  много  наснимала  теперь  только  монтировать
« Последнее редактирование: 31 Январь 2011, 00:45:33 от МУР »
 

Оффлайн lana_11111

  • Живу на форуме
  • *****
  • Сообщений: 5547
  • Сказали спасибо: 267 раз
  • Репутация: 142
  • Ребенок - это любовь, ставшая зримой
  • Откуда: Ставрополь
  • Награды Помощь другу Работающая мама
забыла написать, что я установила ПО
 

Оффлайн МУРАвтор темы

  • Модератор
  • Живу на форуме
  • *****
  • Сообщений: 14439
  • Сказали спасибо: 209 раз
  • Репутация: 326
  • я - Юля, желательно на ты.
  • Награды Долгокормящая мамочка Учитель "Маминой школы" Принимает участие и помогает в развитии форума
lana_11111, ты будешь монтировать видео с Кэнона 500? Или с другой камеры?
 

Оффлайн lana_11111

  • Живу на форуме
  • *****
  • Сообщений: 5547
  • Сказали спасибо: 267 раз
  • Репутация: 142
  • Ребенок - это любовь, ставшая зримой
  • Откуда: Ставрополь
  • Награды Помощь другу Работающая мама
 

Оффлайн МУРАвтор темы

  • Модератор
  • Живу на форуме
  • *****
  • Сообщений: 14439
  • Сказали спасибо: 209 раз
  • Репутация: 326
  • я - Юля, желательно на ты.
  • Награды Долгокормящая мамочка Учитель "Маминой школы" Принимает участие и помогает в развитии форума
все тогда, пока никакой дополнительной инфы не надо  _rs_
 

Оффлайн karinka-mandarinka

  • Живу на форуме
  • *****
  • Сообщений: 10742
  • Сказали спасибо: 6 раз
  • Репутация: 358
  • На Небе-только и разговоров,что о море..и о закате
  • Откуда: Ставрополь - центр
  • Награды Долгокормящая мамочка Журналист форума Слингосемья
возьмете меня в школу?? :)
если да, то напишу характеристики))

 

Оффлайн МУРАвтор темы

  • Модератор
  • Живу на форуме
  • *****
  • Сообщений: 14439
  • Сказали спасибо: 209 раз
  • Репутация: 326
  • я - Юля, желательно на ты.
  • Награды Долгокормящая мамочка Учитель "Маминой школы" Принимает участие и помогает в развитии форума
Кариш, у нас тут свободное посещение. Только, если хочешь монтажу учиться, тогда нужны характеристики. правда я уже не знаю, когда время появится следующий урок сделать  _crazy свадебный сезон еще не закончился  :D
 

Оффлайн karinka-mandarinka

  • Живу на форуме
  • *****
  • Сообщений: 10742
  • Сказали спасибо: 6 раз
  • Репутация: 358
  • На Небе-только и разговоров,что о море..и о закате
  • Откуда: Ставрополь - центр
  • Награды Долгокормящая мамочка Журналист форума Слингосемья
Я бы и монтажу хотела научиться, но только фотоаппарат без видео...  :( так что это попозже, как мужа разведу на новый :-X
просто выкладывать фото в тему-обсуждение? правильно?))


 

Оффлайн МУРАвтор темы

  • Модератор
  • Живу на форуме
  • *****
  • Сообщений: 14439
  • Сказали спасибо: 209 раз
  • Репутация: 326
  • я - Юля, желательно на ты.
  • Награды Долгокормящая мамочка Учитель "Маминой школы" Принимает участие и помогает в развитии форума
Для начала лучше прочитать первые 2 урока (включая ссылки), там общая информация по фото и видео. Возможно уже после этого ты найдешь ошибки в своих фотографиях и выберешь те, которые технически получше. Можно еще полистать тему обсуждений, посмотреть на ошибки других девочек, сделать выводы. а потом выкладывать с настроем на то, что скорее всего найдут кучу недочетов, это нормально и по-другому у новичка и не будет. Так что не обижаться и не расстраиваться :)
 

Оффлайн karinka-mandarinka

  • Живу на форуме
  • *****
  • Сообщений: 10742
  • Сказали спасибо: 6 раз
  • Репутация: 358
  • На Небе-только и разговоров,что о море..и о закате
  • Откуда: Ставрополь - центр
  • Награды Долгокормящая мамочка Журналист форума Слингосемья
Обижаться никто не собирается))) Я только ЗА конструктивную критику))))))
Я ходила на начальные курсы в фотошколу, самые общие представления о фотографии имею, но, честно говоря, многое до сих пор не понимаю _bu_
так что будем учиться))))

 

Оффлайн Svetl@n@

  • Меня все знают
  • ****
  • Сообщений: 3797
  • Сказали спасибо: 365 раз
  • Репутация: 157
  • Откуда: Ставрополь Ю/З
  • Награды Победитель Квеста для мам Автомама Награда для рукодельниц нашего форума
General
Полное имя                       : D:\видео\видео с камеры\PRG001\MOV00A.MOD
Формат                           : MPEG-PS
Размер файла                     : 67.1 MiB
Продолжительность                : 1mn 17s
Общий поток                      : 7 274 Kbps

Video
Идентификатор                    : 224 (0xE0)
Формат                           : MPEG Video
Версия формата                   : Version 2
Профиль формата                  : Main@Main
Параметр BVOP формата            : Yes
Параметр матрицы формата         : Default
Параметры GOP формата            : M=3, N=12
Продолжительность                : 1mn 17s
Вид битрейта                     : Variable
Битрейт                          : 6 873 Kbps
Номинальный битрейт              : 9 600 Kbps
Ширина                           : 720 pixels
Высота                           : 576 pixels
Соотношение сторон               : 16:9
Частота кадров                   : 25.000 fps
Стандарт вещания                 : PAL
Цветовое пространство            : YUV
Подвыборка цветности             : 4:2:0
Битовая глубина                  : 8 bits
Тип развёртки                    : Interlaced
Порядок развёртки                : Top Field First
Метод сжатия                     : Lossy
Бит/(Пиксели*Кадры)              : 0.663
Размер потока                    : 63.3 MiB (94%)

Audio
Идентификатор                    : 128 (0x80)
Формат                           : AC-3
Формат/Информация                : Audio Coding 3
Расширение режима                : CM (complete main)
Продолжительность                : 1mn 17s
Вид битрейта                     : Constant
Битрейт                          : 256 Kbps
Канал(ы)                         : 2 channels
Расположение каналов             : Front: L R
Частота                          : 48.0 KHz
Битовая глубина                  : 16 bits
Метод сжатия                     : Lossy
Задержка видео                   : -80ms
Размер потока                    : 2.36 MiB (4%)

Menu
 

Оффлайн Paloma

  • Меня все знают
  • ****
  • Сообщений: 1924
  • Сказали спасибо: 11 раз
  • Репутация: 75
  • Откуда: Ставрополь, ЮЗ 8988746ноль798
  • Награды Фоторепортер встреч форумчан Слингосемья Велосемья
Мур, посмотрела ваши фотки..тоже хочу научиться так фотографировать. Записаться можно?
 

Оффлайн МУРАвтор темы

  • Модератор
  • Живу на форуме
  • *****
  • Сообщений: 14439
  • Сказали спасибо: 209 раз
  • Репутация: 326
  • я - Юля, желательно на ты.
  • Награды Долгокормящая мамочка Учитель "Маминой школы" Принимает участие и помогает в развитии форума
Только в коммерческой теме хотела дать ссылку на кружок, а вы уже здесь :) Конечно можно, если есть конкретные вопросы - в тему вопросов. Если что-то не нравится, но не понятно что - в ветку работ. Разберем, покритикуем  :D
 

Поделиться:


 

Ставропольские мамы в соцсетях. Присоединяйтесь!