MamaSK - Главная Галерея Реклама на сайте Доска объявлений Совместные покупки Линейки для форума

Автор Тема: Записываемся в кружок! Важная информация в первом посте.  (Прочитано 7589 раз)

0 Пользователей и 1 Гость просматривают эту тему.

Оффлайн МУРАвтор темы

  • Модератор
  • Живу на форуме
  • *****
  • Сообщений: 14439
  • Сказали спасибо: 209 раз
  • Репутация: 326
  • я - Юля, желательно на ты.
  • Награды Долгокормящая мамочка Учитель "Маминой школы" Принимает участие и помогает в развитии форума
Я задумывала эту тему как свободно посещаемую, но все же необходимо соблюсти некоторые формальности, которые сделают работу эффективнее. От участниц мне нужна следующая информация:
1. полное название модели видеокамеры/фотоаппарата;
2. (Только для монтажа!)полное название формата, в котором видеокамера выдает материал. Это не просто три буквы расширения после точки в названии файла. Полную информацию можно найти в инструкции по эксплуатации камеры. Это: кодек, разрешение, частота кадров и собственно расширение файла. Кодеки могут быть такими: AVC HD, H.264, MJPEG, WMV, ASF, DV, HDV, надеюсь ничего не забыла.
3. чему бы вы хотели научиться?
Монтаж будем изучать в программе Canopus Edius 4.61

Может быть кому-то будет проще следующим образом вытянуть инфу (только для монтажа, для фото не надо!). Этот способ не годится, если камера пишет на кассеты или DVD-диски. Программа MediaInfo, весит 2 метра. Ее нужно установить, запустить, через меню Файл-Открыть открыть готовый файл с вашей камеры. После того, как открыли файл нужно щелкнуть на меню Просмотр и выбрать пункт Текст. В окне появится много информации о файле. Ее нужно скопировать и опубликовать в сообщении. Скачать можно по ссылке:
 http://dreamline-studio.ru/MediaInfo_GUI_0.7.39_Windows_i386.exe Жмем правой кнопкой, выбираем Сохранить как.. (или загрузить как... смотря что предложит ваш браузер)ну и сохраняем куда нам надо.
« Последнее редактирование: 25 Январь 2011, 11:50:52 от МУР »
 

Оффлайн маселина

  • Меня все знают
  • ****
  • Сообщений: 1286
  • Сказали спасибо: 3 раз
  • Репутация: 42
  • Откуда: с/з
  • Награды Долгокормящая мамочка
Re: Записываемся в кружок!
« Ответ #1 : 06 Январь 2011, 15:19:43 »
Фотоаппарат Nikon D3100 и Olimpus, по Nikon формат файлов MOV, сложное кодирование вилеосигнала H.264/MPEG-4, частота кадров разная, самая большая 23, 976 к/с, формат записи линейно импулльсно- кодовая модуляция, метод замера матричный, замер экспозиции TTL.  А по олимпусу  инструкцию не нашла еще.
ПО установлено
« Последнее редактирование: 30 Январь 2011, 23:48:55 от МУР »
 

Оффлайн Olik@

  • Меня все знают
  • ****
  • Сообщений: 1121
  • Сказали спасибо: 9 раз
  • Репутация: 128
  • Откуда: г. Ставрополь
  • Награды
Re: Записываемся в кружок!
« Ответ #2 : 06 Январь 2011, 15:56:33 »
Вот кое, что нашла, если не то поправьте меня, пожалуйста _kr_
Canon IXUS 210: ПЗС, 1/2,3", 14,1 млн. пикс.;
Видео:
1280 x 720
640 x 480
320 x 240
Запись изображения: Формат сжатия JPEG (совместимый с Exif 2.2 [Exif Print]) / стандарт файловой системы для камер Design Rule for Camera File System, совместимый с форматом Digital Print Order Format [DPOF] версии 1.1
Видео       MOV [H.264 + линейная импульсно-кодовая модуляция (монофоническая)]
« Последнее редактирование: 31 Январь 2011, 00:51:25 от МУР »
 

Оффлайн STORM

  • Модератор
  • Живу на форуме
  • *****
  • Сообщений: 15950
  • Сказали спасибо: 2365 раз
  • Репутация: 434
  • Татьяна. тел. 8-928-008-46-25
  • Откуда: Ставрополь, к-тр Дружба
  • Награды Герой интервью на форуме МамаСК Участник кулинарного поединка Шеф-повар Победитель годовой номинации Победитель ежегодной номинации Помощь другу Журналист форума
    • Мои фото-работы
Re: Записываемся в кружок!
« Ответ #3 : 06 Январь 2011, 20:13:54 »
Привет!

1. Камера Canon 5D Mark II.
2. Формат .mov     
Видеокодеки   MPEG4/h.264    
Максимальное разрешение роликов   1920x1080  
Максимальная частота кадров видеоролика   30 кадров/с
3. Видео ею я снимаю очень редко, потому как неудобно с рук в мануале фокусироваться. По большим праздникам снимаю дочку. Иногда хотелось бы склеить минутные ролики в один, вырезать ненужное, все склеить, может быть добавить надпись-дату, чтобы потом не потерять, когда дело происходило.

До этого три года снимали малую другой фотокамерой-просьюмеркой Olympus C5060 (Максимальное разрешение роликов   640x480; Максимальная частота кадров видеоролика   15 кадров/с; Формат .mov (QuickTime Motion JPEG)).
Задача в общем та же. Собрать в кучу кусочки видео, обрезать лишнее, чего-нибудь подписать и сохранить без критичных потерь в качестве видео и звука.

Заранее спасибо Глядя на вас, может и решусь на фото ;)
ПО установлено
« Последнее редактирование: 30 Январь 2011, 23:40:51 от МУР »
 

Оффлайн лелька

  • Меня все знают
  • ****
  • Сообщений: 1006
  • Сказали спасибо: 1 раз
  • Репутация: 40
  • Откуда: г. Невинномысск
  • Награды Награда для рукодельниц нашего форума
Re: Записываемся в кружок!
« Ответ #4 : 06 Январь 2011, 22:38:18 »
У меня фотоаппарат Samsung S1050
Вот что нашла.
Отношение сторон кадра: 4:3
Запись видео
Форматы видео: MPEG-4
Кадров в секунду: 20/30(15)
Разрешения: 640 480, 320 240, 800 600
Запись звука: моно
Поддерживаемые разрешения видео   800 x 600 - видеозаписи (15 кадров в секунду) в формате MPEG4 с моно звуком, 800 x 600 - видеозаписи (20 кадров в секунду) в формате MPEG4 с моно звуком, 720 x 480 - видеозаписи (20 кадров в секунду) в формате MPEG4 с моно звуком, 720 x 480 - видеозаписи (20 кадров в секунду) в формате MPEG4 с моно звуком, 640 x 480 - видеозаписи (30 кадров в секунду) в формате MPEG4 с моно звуком, 720 x 480 - видеозаписи (15 кадров в секунду) в формате MPEG4 с моно звуком, 320 x 240 - видеозаписи (30 кадров в секунду) в формате MPEG4 с моно звуком
Максимальное разрешение   3648 x 2736 пикселей
Формат записи видео    AVI 
 Видеокодеки    MPEG4 
 Максимальное разрешение роликов    800x600 
 Максимальная частота кадров видеоролика    30 кадров/с   
« Последнее редактирование: 31 Январь 2011, 00:54:14 от МУР »
 

Оффлайн Мамуличка

  • Живу на форуме
  • *****
  • Сообщений: 5374
  • Сказали спасибо: 3 раз
  • Репутация: 161
  • Анна
  • Откуда: ст. Зольская
  • Награды Победитель ежегодной номинации Крепкий брак Награда для мастериц фотошопа нашего форума Цветовод-Садовод Победитель в годовой номинации Принимает участие и помогает в развитии форума Автомама
Re: Записываемся в кружок!
« Ответ #5 : 07 Январь 2011, 17:35:46 »
и меня и меня запишите   

У меня фотоаппарат Panasonic DMC FX10 Lumix

Хочу научиться всему, что только возможно с таким фотоаппаратом. Каждому уроку буду безумно рада. Постараюсь все впитать и усвоить   Но боюсь, что буду задавать слишком много вопросов   
Формат                           : JPEG
Размер файла                     : 2,17 Мбайт

Изображения
Формат                           : JPEG
Ширина                           : 2816 пикс.
Высота                           : 2112 пикс.
Подвыборка цветности             : 4:2:2
Битовая глубина                  : 8 бит
Метод сжатия                     : С потерями


Формат                           : QuickTime
Формат/Информация                : Original Apple specifications
Размер файла                     : 23,5 Мбайт
Продолжительность                : 25 с.
Общий поток                      : 7878 Кбит/сек
Дата кодирования                 : UTC 2009-08-27 20:29:59
Дата пометки                     : UTC 2009-08-27 20:29:59
Библиотека кодирования           : pana

Видео
Идентификатор                    : 1
Формат                           : JPEG
Идентификатор кодека             : jpeg
Продолжительность                : 25 с.
Вид битрейта                     : Переменный
Битрейт                          : 7813 Кбит/сек
Ширина                           : 640 пикс.
Высота                           : 480 пикс.
Соотношение сторон               : 4:3
Режим частоты кадров             : Постоянный
Частота кадров                   : 30,000 кадр/сек
Метод сжатия                     : С потерями
Бит/(Пиксели*Кадры)              : 0.848
Размер потока                    : 23,3 Мбайт (99%)
Язык                             : English
Дата кодирования                 : UTC 2009-08-27 20:29:59
Дата пометки                     : UTC 2009-08-27 20:29:59

Аудио
Идентификатор                    : 2
Формат                           : PCM
Параметр Endianness формата      : Little
Параметр Sign формата            : Unsigned
Идентификатор кодека             : raw
Продолжительность                : 25 с.
Вид битрейта                     : Постоянный
Битрейт                          : 64,0 Кбит/сек
Канал(ы)                         : 1 канал
Частота                          : 8000 Гц
Битовая глубина                  : 8 бит
Размер потока                    : 195 Кбайт (1%)
Язык                             : English
Дата кодирования                 : UTC 2009-08-27 20:29:59
Дата пометки                     : UTC 2009-08-27 20:29:59



ОНО???
« Последнее редактирование: 31 Январь 2011, 00:49:28 от МУР »
 
 

Оффлайн Romashka

  • Меня все знают
  • ****
  • Сообщений: 3723
  • Сказали спасибо: 77 раз
  • Репутация: 172
  • Откуда: Ставрополь
  • Награды Принимает участие и помогает в развитии форума Награда для рукодельниц нашего форума
Я записываюсь тоже  :)
фотоаппарат canon 400D
камера JVC Everio Hybrid Camcorder
http://www.videomaker.com/article/13923/
Общее
Полное имя                       : C:\Documents and Settings\Я\Рабочий стол\MOV02E.MOD
Формат                           : MPEG-PS
Размер файла                     : 95,3 Мбайт
Продолжительность                : 1 м. 23 с.
Общий поток                      : 9567 Кбит/сек

Видео
Идентификатор                    : 224 (0xE0)
Формат                           : MPEG Video
Версия формата                   : Version 2
Профиль формата                  : Main@Main
Параметр BVOP формата            : Да
Параметр матрицы формата         : По умолчанию
Параметры GOP формата            : M=3, N=12
Продолжительность                : 1 м. 23 с.
Вид битрейта                     : Переменный
Битрейт                          : 8900 Кбит/сек
Ширина                           : 720 пикс.
Высота                           : 576 пикс.
Соотношение сторон               : 16:9
Частота кадров                   : 25,000 кадр/сек
Стандарт вещания                 : PAL
Цветовое пространство            : YUV
Подвыборка цветности             : 4:2:0
Битовая глубина                  : 8 бит
Тип развёртки                    : Чересстрочная
Порядок развёртки                : Верхнее поле первое
Метод сжатия                     : С потерями
Бит/(Пиксели*Кадры)              : 0.858
Размер потока                    : 89,5 Мбайт (94%)

Аудио
Идентификатор                    : 128 (0x80)
Формат                           : AC-3
Формат/Информация                : Audio Coding 3
Расширение режима                : CM (complete main)
Продолжительность                : 1 м. 23 с.
Вид битрейта                     : Постоянный
Битрейт                          : 384 Кбит/сек
Канал(ы)                         : 2 канала(ов)
Расположение каналов             : Front: L R
Частота                          : 48,0 КГц
Битовая глубина                  : 16 бит
Метод сжатия                     : С потерями
Задержка видео                   : -80 мс.
Размер потока                    : 3,82 Мбайт (4%)

ПО установлено
« Последнее редактирование: 30 Январь 2011, 23:42:17 от МУР »

 

Оффлайн Lenkamalenka

  • Меня все знают
  • ****
  • Сообщений: 3913
  • Сказали спасибо: 35 раз
  • Репутация: 108
  • Опечатки не исправляю - терпите ))
  • Откуда: Ставрополь центр
  • Награды Герой интервью на форуме МамаСК Учитель "Маминой школы" Принимает участие и помогает в развитии форума Велосемья Награда для рукодельниц нашего форума Журналист форума
    • Сайт о здоровом образе жизни
Panasonic SDR-S26

Общее
CompleteName                     : D:\фото\видео с камеры - новогодний утренник и другое\PRG009\MOV001.MOD
Format                           : MPEG-PS
FileSize/String                  : 1,73 Гбайт
Duration/String                  : 25 м.
OverallBitRate/String            : 9637 Кбит/сек

Видео
ID/String                        : 224 (0xE0)
Format                           : MPEG Video
Format_Version                   : Version 2
Format_Profile                   : Main@Main
Format_Settings_BVOP/String      : Да
Format_Settings_Matrix/String    : По умолчанию
Format_Settings_GOP              : M=3, N=12
Duration/String                  : 25 м.
BitRate_Mode/String              : Переменный
BitRate/String                   : 9510 Кбит/сек
Width/String                     : 704 пикс.
Height/String                    : 576 пикс.
DisplayAspectRatio/String        : 16:9
FrameRate/String                 : 25,000 кадр/сек
Standard                         : PAL
ColorSpace                       : YUV
ChromaSubsampling                : 4:2:0
BitDepth/String                  : 8 бит
ScanType/String                  : Чересстрочная
ScanOrder/String                 : Верхнее поле первое
Compression_Mode/String          : С потерями
Bits-(Pixel*Frame)               : 0.938
StreamSize/String                : 1,65 Гбайт (95%)

Аудио
ID/String                        : 192 (0xC0)
Format                           : MPEG Audio
Format_Version                   : Version 1
Format_Profile                   : Layer 2
Duration/String                  : 25 м.
BitRate_Mode/String              : Постоянный
BitRate/String                   : 256 Кбит/сек
Channel(s)/String                : 2 канала(ов)
SamplingRate/String              : 48,0 КГц
Compression_Mode/String          : С потерями
Video_Delay/String               : -80 мс.
StreamSize/String                : 47,0 Мбайт (3%)
ПО установлено
« Последнее редактирование: 30 Январь 2011, 23:47:03 от МУР »
 

Оффлайн Valantida

  • Редактор журнала
  • Меня все знают
  • *
  • Сообщений: 4864
  • Сказали спасибо: 123 раз
  • Репутация: 212
  • Валентина
  • Откуда: Ставрополь
  • Награды Герой интервью на форуме МамаСК Журналист форума Автомама Крепкий брак Цветовод-Садовод Награда для самых молодых мам МамаСК Лучший журналист электронного журнала "Мама СК" Принимает участие и помогает в развитии форума
у меня видеокамера Sony handycam DCR-HC23E. У меня куча сырого материала на жестком в формате DV и его нужно научиться "превратить в фильм". Если возникнет неоюходимость перенести с камеры на жесткий и после обработать его то с перенести муж поможет.
ПО установлено
« Последнее редактирование: 30 Январь 2011, 23:43:18 от МУР »

 

Оффлайн Юлия Александровна

  • Всех здесь знаю
  • ***
  • Сообщений: 491
  • Репутация: 15
  • Откуда: Зелёная Роща
  • Награды Орден маме погодок с разницей до 2.5 лет между детьми многодетная мама форума
Panaconik DMC-FZ8
Ясно, сейчас попробую ещё.Полное имя                       : C:\Documents and Settings\деман\Рабочий стол\28.12.2010\20101001183918.mpg
Формат                           : MPEG-PS
Размер файла                     : 83,8 Мбайт
Продолжительность                : 2 м. 7 с.
Общий поток                      : 5503 Кбит/сек

Видео
Идентификатор                    : 224 (0xE0)
Формат                           : MPEG Video
Версия формата                   : Version 2
Профиль формата                  : Main@Main
Параметр BVOP формата            : Да
Параметр матрицы формата         : По умолчанию
Параметры GOP формата            : M=3, N=12
Продолжительность                : 2 м. 7 с.
Вид битрейта                     : Переменный
Битрейт                          : 5138 Кбит/сек
Номинальный битрейт              : 9100 Кбит/сек
Ширина                           : 720 пикс.
Высота                           : 576 пикс.
Соотношение сторон               : 16:9
Частота кадров                   : 25,000 кадр/сек
Стандарт вещания                 : PAL
Цветовое пространство            : YUV
Подвыборка цветности             : 4:2:0
Битовая глубина                  : 8 бит
Тип развёртки                    : Чересстрочная
Порядок развёртки                : Верхнее поле первое
Метод сжатия                     : С потерями
Бит/(Пиксели*Кадры)              : 0.496
Размер потока                    : 78,1 Мбайт (93%)

Аудио
Идентификатор                    : 128 (0x80)
Формат                           : AC-3
Формат/Информация                : Audio Coding 3
Расширение режима                : CM (complete main)
Продолжительность                : 2 м. 7 с.
Вид битрейта                     : Постоянный
Битрейт                          : 256 Кбит/сек
Канал(ы)                         : 2 канала(ов)
Расположение каналов             : Front: L R
Частота                          : 48,0 КГц
Битовая глубина                  : 16 бит
Метод сжатия                     : С потерями
Задержка видео                   : -80 мс.
Размер потока                    : 3,90 Мбайт (5%)
ПО установлено

« Последнее редактирование: 30 Январь 2011, 23:45:56 от МУР »
 

Оффлайн Нина

  • Меня все знают
  • ****
  • Сообщений: 2189
  • Сказали спасибо: 50 раз
  • Репутация: 33
  • Награды Долгокормящая мамочка Работающая мама
И я хочу кусочки видео в фильм, надеюсь получиться
Canon PowerShot A480
Видео    AVI [сжатие Motion JPEG]
(L) 640x480, 30 кадров/с в обычном режиме и режиме LP
(M) 320x240, 30 кадров/с
« Последнее редактирование: 25 Январь 2011, 11:24:50 от МУР »
 

Оффлайн Cat

  • Всех здесь знаю
  • ***
  • Сообщений: 475
  • Сказали спасибо: 1 раз
  • Репутация: 37
  • Откуда: г. Михайловск , ул. Войкова (3-я школа)
  • Награды Работающая мама
меня тоже запишите  ;)
фотоаппарат Fujifilm FanePix S2500HD
Формат                           : AVI
Идентификатор кодека             : MJPG
Ширина                           : 640 пикс.
Высота                           : 480 пикс.
Частота кадров                   : 30,000 кадр/сек
« Последнее редактирование: 25 Январь 2011, 11:27:23 от МУР »
 

Оффлайн маселина

  • Меня все знают
  • ****
  • Сообщений: 1286
  • Сказали спасибо: 3 раз
  • Репутация: 42
  • Откуда: с/з
  • Награды Долгокормящая мамочка
General
Complete name                    : C:\все фотки\Элина\фото 2008\5 месяцев\P7080093.MOV
Format                           : QuickTime
Format/Info                      : Original Apple specifications
File size                        : 7.89 MiB
Duration                         : 1mn 3s
Overall bit rate                 : 1 049 Kbps
Movie name/More                  : OLYMPUS DIGITAL CAMERA                           
Encoded date                     : UTC 2007-07-08 13:53:32
Tagged date                      : UTC 2007-07-08 13:53:32
Writing library                  : Olympus
Origin                           : Digital Camera

Video
ID                               : 1
Format                           : JPEG
Codec ID                         : jpeg
Duration                         : 1mn 3s
Bit rate mode                    : Variable
Bit rate                         : 1 046 Kbps
Width                            : 160 pixels
Height                           : 120 pixels
Display aspect ratio             : 4:3
Frame rate mode                  : Constant
Frame rate                       : 15.000 fps
Compression mode                 : Lossy
Bits/(Pixel*Frame)               : 3.632
Stream size                      : 7.87 MiB (100%)
Language                         : English
Encoded date                     : UTC 2007-07-08 13:53:32
Tagged date                      : UTC 2007-07-08 13:53:32

Скопировала все, что именно нужно не знаю. Это по Olimpus.
 

Оффлайн Sirina

  • Меня все знают
  • ****
  • Сообщений: 2253
  • Сказали спасибо: 34 раз
  • Репутация: 66
  • Меня зовут Ирина и ко мне на ты
  • Откуда: Ставрополь, Мамайка
  • Награды Долгокормящая мамочка Награда для рукодельниц нашего форума Учитель "Маминой школы" Принимает участие и помогает в развитии форума Награда для мастериц фотошопа нашего форума
надеюсь, еще можно записаться?  _rs_
У меня два устройство для записи видео
1. Видеокамера Canon FS11 накоторой записано все мое основное видео.
Стандарт записи       MPEG-2
Формат записи       SD - Стандартная четкость

2. Фотоаппарат nikon d90. Он новый, на нем я почти не снимала.
Его характеристики

Видео    1280 x 720, 24 fps, AVI, M-JPEG, звук

« Последнее редактирование: 25 Январь 2011, 11:33:08 от МУР »
 

Оффлайн lana_11111

  • Живу на форуме
  • *****
  • Сообщений: 5547
  • Сказали спасибо: 267 раз
  • Репутация: 142
  • Ребенок - это любовь, ставшая зримой
  • Откуда: Ставрополь
  • Награды Помощь другу Работающая мама
1. Canon EOS 500D Kit
3. хочу научиться фотографировать
и монтаж
ПО установлено
« Последнее редактирование: 20 Февраль 2011, 11:43:39 от МУР »
 

Поделиться:


 

Ставропольские мамы в соцсетях. Присоединяйтесь!